Hızlı Arama Robotu
Hızlı Arama Robotu
toy story 4 indir

Oyuncak Hikayesi 4 İndir – Toy Story 4 (2019) Türkçe Dublaj 1080p

FİLMİ İNDİR
Oyuncak Hikayesi 4 İndir – Toy Story 4 (2019) Türkçe Dublaj 1080p

toy story 4 indir

Oyuncak Hikayesi 4 İndir – Toy Story 4 (2019) Türkçe Dublaj 1080p

Oyuncak Hikayesi 4 İndir, 2019 yapımı aksiyon, macera, komedi türünde orjinal ismi Toy Story 4 vizyon tarihi 21.06.2019 olan filmi vizyona girdikten sonra sitemizden türkçe dublaj seçeneğiyle tek link olarak ve full hd 1080p kalitesinde ücretsiz indirebilirsiniz. Kaşıktan yapılma bir oyuncak olan Forky’nin atıldığı macerayı konu ediyor. Bir geri dönüşüm projesi ile yaratılan Forky, oyuncak olduğunu katiyen kabul etmez. Tek kullanımlık bir kaşıktan yapılma bir oyuncak olsa da o oyuncak olmadığı konusu ile ilgili ısrarcıdır. Kendisini Bonnie’nin odasına ait hissetmeyen Forky, dünyadaki amacının ne olduğunu düşünmeye başlar. Kendisini diğer oyuncaklarla bir görmediği için ait olduğunu Bonnie’nin yanısıra olmak zorunda hissetmeyen Forky, dünyadaki amacını kaşık olarak yerine getirmeye karar verir. Ancak onun oyuncak olarak üstesinden gelmesi gereken bambaşka bir görevi vardır. 

FİLM VİDEO-SES-ALTYAZI BİLGİLERİ

Video
ID : 1
Format : AVC
Format/Info : Advanced Video Codec
Format profile : [email protected]
Format settings : CABAC / 4 Ref Frames
Format settings, CABAC : Yes
Format settings, Reference frames : 4 frames
Codec ID : V_MPEG4/ISO/AVC
Duration : 1 h 29 min
Bit rate : 2 859 kb/s
Width : 1 920 pixels
Height : 800 pixels
Display aspect ratio : 2.40:1
Frame rate mode : Constant
Frame rate : 30.000 FPS
Color space : YUV
Chroma subsampling : 4:2:0
Bit depth : 8 bits
Scan type : Progressive
Bits/(Pixel*Frame) : 0.062
Stream size : 1.79 GiB (99%)

Audio
ID : 2
Format : AAC LC
Format/Info : Advanced Audio Codec Low Complexity
Codec ID : A_AAC-2
Duration : 1 h 29 min
Bit rate : 38.7 kb/s
Channel(s) : 2 channels
Channel layout : L R
Sampling rate : 48.0 kHz
Frame rate : 46.875 FPS (1024 SPF)
Compression mode : Lossy
Stream size : 24.9 MiB (1%)

Toy Story 4 full indir

Turbobit – GDrive – Megaup – Uptobox – Letsupload

FİLMİ İNDİR
Oyuncak Hikayesi 4 İndir – Toy Story 4 (2019) Türkçe Dublaj 1080p


Rar şifresi: indir.cafe
Oyuncak Hikayesi 4 İndir – Toy Story 4 (2019) Türkçe Dublaj 1080p BENZER İÇERİKLER
Oyuncak Hikayesi 4 İndir – Toy Story 4 (2019) Türkçe Dublaj 1080p YAPILAN YORUMLAR